» » Dominic Bugatti & Frank Musker - The Dukes +3

Dominic Bugatti & Frank Musker - The Dukes +3 download mp3 flac


Performer: Dominic Bugatti & Frank Musker
Genre: Rock / Funk / Soul
Album: The Dukes +3
Released: 2016
Style: AOR, Soft Rock
MP3 version ZIP size: 1138 mb
FLAC version RAR size: 1614 mb
WMA version ZIP size: 1323 mb
Rating: 4.5
Votes: 714
Other Formats: DTS VOC AUD WAV MP4 XM ADX

Free Download Dominic Bugatti & Frank Musker - The Dukes +3

Dominic Bugatti & Frank Musker - The Dukes +3
MP3 version .RAR archive

1138 downloads at 17 mb/s
Dominic Bugatti & Frank Musker - The Dukes +3
FLAC version .RAR archive

1614 downloads at 13 mb/s
Dominic Bugatti & Frank Musker - The Dukes +3
WMA version .RAR archive

1323 downloads at 14 mb/s

Tracklist

1 Mystery Girl 4:44
2 Survivor 3:21
3 Thank You For The Party 3:42
4 Memories 3:19
5 Excitement Of The New 5:34
6 Love Dance 3:46
7 Soul Mates 3:42
8 So Much In Love 4:19
9 Fate 3:41
10 Nite Music 4:02
Bonus Tracks
11 My Simple Heart 3:25
12 Loves Fool 3:25
13 Every Woman In The World 3:19

Companies, etc.

  • Manufactured By – Warner Music Japan Inc.

Credits

  • Producer – Arif Mardin

Notes

Original released 1982.

Barcode and Other Identifiers

  • Barcode (Text): 4943674229758
  • Rights Society: JASRAC

Other versions

Category Artist Title (Format) Label Category Country Year
80010-1 The Dukes The Dukes Bugatti & Musker ‎(LP, Album) Atlantic 80010-1 US 1982
K58479, K 58479 The Dukes Bugatti & Musker ‎(LP, Album) WEA, WEA K58479, K 58479 UK 1982
K58479 The Dukes The Dukes Bugatti & Musker ‎(LP) Wea, Rádio Triunfo K58479 Portugal 1982
P-11247 The Dukes The Dukes Bugatti & Musker ‎(LP, Album) WEA P-11247 Japan 1982
WPCR-10435 The Dukes Bugatti & Musker ‎(CD, Album, RE, RM) WEA WPCR-10435 Japan 1999

Nagis
foobar2000 1.3.17 / Dynamic Range Meter 1.1.1log date: 2018-05-25 18:40:18--------------------------------------------------------------------------------Analyzed: Bugatti & Musker / The Dukes [JP 2016 CD]--------------------------------------------------------------------------------DR Peak RMS Duration Track--------------------------------------------------------------------------------DR9 0.00 dB -11.48 dB 4:44 01-Mystery GirlDR9 0.00 dB -10.42 dB 3:21 02-SurvivorDR11 0.00 dB -11.70 dB 3:42 03-Thank You For The PartyDR9 0.00 dB -12.30 dB 3:19 04-MemoriesDR9 0.00 dB -10.19 dB 5:34 05-Exicitement Of The NewDR9 0.00 dB -9.98 dB 3:46 06-Love DanceDR8 0.00 dB -9.83 dB 3:42 07-Soul MatesDR8 0.00 dB -10.74 dB 4:19 08-So Much In LoveDR8 0.00 dB -10.55 dB 3:41 09-FateDR9 0.00 dB -11.05 dB 4:02 10-Nite MusicDR9 0.00 dB -10.34 dB 3:25 11-My Simple Heart [bonus track]DR10 0.00 dB -11.10 dB 3:25 12-Loves Fool [bonus track]DR7 0.00 dB -9.37 dB 3:19 13-Every Woman In The World [bonus track]--------------------------------------------------------------------------------Number of tracks: 13Official DR value: DR9Samplerate: 44100 HzChannels: 2Bits per sample: 16Bitrate: 962 kbpsCodec: ALAC================================================================================